RSS
 
TВ-шоу торрент скачать .torrent скачали: 0 Вернуться назад

Дискотека 80-х от Авторадио Топ 20 (2013) HDTVRIp 1080р скачать торрент бесплатно

17-06-2020, 11:00 TВ-шоу торрент скачать
  •  (голосов: 1, оценка 5/5, голосовать можно 1 раз )
 

Дискотека 80-х от Авторадио Топ 20 (2013) HDTVRIp 1080р
Детально о кино
Русское название в мировом прокате: Авторадио Дискотека 80-х TOP-20 (полная версия)
Создали в: 2013
Категория жанра: Disco
Главный режиссер: первый канал

Актеры
Сергей Минаев, Владимир Маркин, Ottawan, Joy, Мираж, Pupo, F.R.David, Игорь Николаев, Sandra, Eddy Huntington, Олег Газманов, Boney M, Savage, Валерий Сюткин, Ricchi E Poveri, Alphaville, Secret Service, Ten Sharp, Thomas Anders, Rick Astley

Сюжет фильма

23 ноября 2013 года в СК Олимпийский состоялось грандиозное шоу - XII медународный фестиваль Авторадио Дискотека 80-х TOP-20. Thomas Anders, Sandra, Boney M и Ricchi e Poveri, Alphaville и F.R.David, Joy, Pupo, Secret Service, Savage, Eddy Huntington, Ottawan вышли на сцену Олимпийского.
Впервые на Дискотеке 80-х популярный английский исполнитель Rick Astley, чей дебютный сингл Never Gonna Give You Up, взорвавший в конце 80-х британские чарты, стал мировым суперхитом, а также мастер красивых романтичных баллад Ten Sharp. В активе голландцев много красивых лиричных баллад, гимнов любви и нежности, но для всех слушателей Ten Sharp - это, в первую очередь, группа, подарившая миру песню You - мелодичный мега-хит, ставший гимном всех влюбленных и побывавший на первых местах всех мыслимых хит-парадов.
Среди отечественных звезд Дискотеки 80-х в этом году - неподражаемый Олег Газманов, культовая группа Мираж, король рок-н-ролла Валерий Сюткин, маэстро российской эстрады Игорь Николаев и, конечно же, кумиры дискотек, ведущие первых фестивалей Авторадио Сергей Минаев и Владимир Маркин.
Снималось в: Россия
Время просмотра: 03: 17: 15
Язык: Русский
Файл
Тип видео: MPEG-4
Качество фильма: HDTVRIp (1080р)
Информация о видео: AVC, 12, 0 Мбит/сек, 1920x1080 (16: 9)
Информация о звуке: AAC, 2 ch, 192 Кбит/с
Треклист

01. Сергей Минаев и Владимир Маркин - Мы вместе опять
02. OTTAWAN - D.I.S.C.O
03. OTTAWAN - Hands Up
04. Joy - Valerie
05. Joy - Hello
06. Joy - Touch by touch
07. Мираж - Я больше не прошу
08. Мираж - Музыка нас связала
09. Pupo - Chissa se domani
10. Pupo - Lo Devo Solo a Te
11. Pupo - Gelato Al Cioccolato
12. F.R.David - Words
13. F.R.David - Taxi
14. Игорь Николаев - Незнакомка
15. Sandra - Everlasting love
16. Sandra - Secret land
17. Sandra - Maria Magdalena
18. Eddy Huntington - Love for Russia
19. Eddy Huntington - USSR
20. Олег Газманов - Путана
21. Олег Газманов - Эскадрон
22. Boney M - Rivers of Babylon
23. Boney M - Rasputin
24. Boney M - Bagama Mama
25. Savage - Only you
26. Savage - Goodbye
27. Валерий Сюткин - Московский бит
28. Валерий Сюткин - Любите девушки
29. Ricchi E Poveri - Dan Dan (E una canzone D;Amore)
30. Ricchi E Poveri - Come Vorrei
31. Ricchi E Poveri + Новый герой - Mamma Maria
32. Alphaville - Dance with me
33. Alphaville - Forever young
34. Alphaville - Big in Japan
35. Secret Service - Ten O;Clock Postman
36. Secret Service - Flash in the night
37. Secret Service - L.A. Goodbye
38. Ten Sharp - You
39. Thomas Anders - Brother Louie
40. Thomas Anders - Atlantis is calling
41. Thomas Anders - Cherri, Cherri lady
42. Thomas Anders - You;re my heart, You;re my soul
43. Rick Astley - Never gonna give you up
44. Rick Astley - Together forever
45. Заключительное слово президента авторадио Юрия Костина


MediaInfo

Общее
Полное имя : D: Дискотека 80-х 2013 год (HDTVRIp 1080p)
Формат : MPEG-4
Профиль формата : JVT
Идентификатор кодека : avc1 (avc1/mp42)
Размер файла : 16, 8 Гбайт
Продолжительность : 3 ч. 17 м.
Режим общего битрейта : Переменный
Общий поток : 12, 2 Мбит/сек
Видео
Идентификатор : 1
Формат : AVC
Формат/Информация : Advanced Video Codec
Профиль формата : [email protected]
Настройки формата : CABAC/2 Ref Frames
Параметр CABAC формата : Да
Параметр RefFrames формата : 2 кадра
Идентификатор кодека : avc1
Идентификатор кодека/Информация : Advanced Video Coding
Продолжительность : 3 ч. 17 м.
Вид битрейта : Переменный
Битрейт : 12, 0 Мбит/сек
Максимальный битрейт : 17, 0 Мбит/сек
Ширина : 1 920 пикселей
Высота : 1 080 пикселей
Соотношение сторон : 16: 9
Режим частоты кадров : Постоянный
Частота кадров : 25, 000 кадров/сек
Цветовое пространство : YUV
Субдискретизация насыщенности : 4: 2: 0
Битовая глубина : 8 бит
Тип развёртки : Прогрессивная
Бит/(Пиксели*Кадры) : 0.231
Размер потока : 16, 5 Гбайт (98%)
Codec configuration box : avcC
Аудио
Идентификатор : 2
Формат : AAC LC
Формат/Информация : Advanced Audio Codec Low Complexity
Идентификатор кодека : mp4a-40-2
Продолжительность : 3 ч. 17 м.
Продолжительность оригинала : 3 ч. 17 м.
Вид битрейта : Постоянный
Битрейт : 192 Кбит/сек
Каналы : 2 канала
Channel layout : L R
Частота : 48, 0 КГц
Частота кадров : 46, 875 кадров/сек (1024 SPF)
Метод сжатия : С потерями
Размер потока : 271 Мбайт (2%)
Размер потока оригинала : 271 Мбайт (2%)

Скриншоты

Релиз подготовил: Rmk80disco
Залил: Rmk80disco
Размер скачиваемого торрента: 16.82 GB (18055600300 Bytes)


Дискотека 80-х от Авторадио Топ 20 (2013) HDTVRIp 1080р скачать торрент бесплатно
 

Уважаемый посетитель, Вы зашли на сайт как незарегистрированный пользователь
Мы рекомендуем Вам зарегистрироваться либо войти на сайт под своим именем

Информация
Посетители, находящиеся в группе Гости, не могут оставлять комментарии в данной новости.
Добро пожаловать на сайт!

Этот сайт для истинных фанатов торрента.


ВНИМАНИЕ! ВСЕ ЖАЛОБЫ через РОСКОМНАДЗОР!
Мы со своей стороны, контент удаляем в течениии суток.

[email protected] почта для обращений

Опросы

А Вы добавили сайт в закладки?

Да
Не